<?xml version="1.0" standalone="no"?>
<!DOCTYPE svg PUBLIC "-//W3C//DTD SVG 1.1//EN" "http://www.w3.org/Graphics/SVG/1.1/DTD/svg11.dtd" >
<svg>
<metadata>
Created by FontForge 20120731 at Thu Dec  8 15:39:15 2016
 By www
Created by Sizenko Alexander. (c) 2008 Style-7. All rights reserved. http://www.styleseven.com
</metadata>
<defs>
<font id="Digital-7Mono" horiz-adv-x="500" >
  <font-face 
    font-family="Digital-7 Mono"
    font-weight="400"
    font-stretch="normal"
    units-per-em="1100"
    panose-1="2 0 0 0 0 0 0 0 0 0"
    ascent="880"
    descent="-220"
    x-height="710"
    cap-height="720"
    bbox="0 -120 500 840"
    underline-thickness="70"
    underline-position="-85"
    unicode-range="U+0020-2030"
  />
<missing-glyph 
d="M410 0h-360q-40 10 -50 50l80 30h300zM380 640h-299l-80 30q10 40 50 50h359zM80 100l-80 -30v580l80 -30v-520zM480 50q-10 -40 -50 -50l-30 80v560l30 80q40 -10 50 -50v-620z" />
    <glyph glyph-name=".notdef" 
d="M410 0h-360q-40 10 -50 50l80 30h300zM380 640h-299l-80 30q10 40 50 50h359zM80 100l-80 -30v580l80 -30v-520zM480 50q-10 -40 -50 -50l-30 80v560l30 80q40 -10 50 -50v-620z" />
    <glyph glyph-name="NULL" 
 />
    <glyph glyph-name="nonmarkingreturn" 
 />
    <glyph glyph-name="space" unicode=" " 
 />
    <glyph glyph-name="exclam" unicode="!" 
d="M270 350l20 -20v-170h-80v130zM210 430v210l30 80q40 -10 50 -50v-280l-20 -20zM290 0h-80v80h80v-80z" />
    <glyph glyph-name="quotedbl" unicode="&#x22;" 
d="M220 560l-40 -40l-40 40v160h80v-160zM381 561l-40 -40l-40 40v160h80v-160z" />
    <glyph glyph-name="numbersign" unicode="#" 
d="M270 480l40 -40l-40 -40h-40l-40 40l40 40h40zM270 320l40 -40l-40 -40h-40l-40 40l40 40h40zM130 380l40 40l40 -40v-40l-40 -40l-40 40v40zM290 380l40 40l40 -40v-40l-40 -40l-40 40v40zM130 560l40 40l40 -40v-60l-40 -40l-40 40v60zM290 560l40 40l40 -40v-60
l-40 -40l-40 40v60zM290 221l40 40l40 -40v-61l-40 -40l-40 40v61zM130 220l40 40l40 -40v-61l-40 -40l-40 40v61zM110 320l40 -40l-40 -40h-40l-40 40l40 40h40zM430 319l40 -40l-40 -40h-40l-40 40l40 40h40zM430 480l40 -40l-40 -40h-40l-40 40l40 40h40zM110 479l40 -40
l-40 -40h-40l-40 40l40 40h40z" />
    <glyph glyph-name="dollar" unicode="$" 
d="M380 400l40 -40l-40 -40h-260l-40 40l40 40h260zM440 350l20 -20v-280q-10 -40 -50 -50l-30 80v210zM390 0h-300q-40 10 -50 50l80 30h240zM120 620v-190l-60 -60l-20 20v260zM121 640l-80 30q10 40 50 50h319q40 -10 50 -50l-80 -30h-259zM220 750v50l40 40l40 -40v-50
h-80zM220 430v180h80v-180h-80zM220 110v180h80v-180h-80zM300 -30v-50l-40 -40l-40 40v50h80z" />
    <glyph glyph-name="percent" unicode="%" 
d="M261 478l119 242q60 0 80 -40l-154 -310h-45v108zM239 242l-119 -242q-60 0 -80 40l154 310h45v-108zM140 640h-60l-80 30q10 40 50 50h120zM80 620v-60l-30 -80q-40 10 -50 50v120zM100 560h60l80 -30q-10 -40 -50 -50h-120zM160 580v60l30 80q40 -10 50 -50v-120z
M420 100v60l30 80q40 -10 50 -50v-120zM400 160h-60l-80 30q10 40 50 50h120zM340 140v-60l-30 -80q-40 10 -50 50v120zM360 80h60l80 -30q-10 -40 -50 -50h-120z" />
    <glyph glyph-name="ampersand" unicode="&#x26;" 
d="M380 400l40 -40l-40 -40h-260l-40 40l40 40h260zM440 350l20 -20v-230h-50l-30 30v160zM480 0h-390q-40 10 -50 50l80 30h320l60 -60zM40 70v260l20 20l60 -60v-190zM320 600h-160l-80 30q10 40 50 50h220zM160 580v-110l-60 -60l-20 20v180zM340 470v130l30 80
q40 -10 50 -50v-200l-20 -20zM460 -20v-50l-20 -20l-60 60v10h80z" />
    <glyph glyph-name="quotesingle" unicode="'" 
d="M300 560l-40 -40l-40 40v160h80v-160z" />
    <glyph glyph-name="parenleft" unicode="(" 
d="M250 640h-110l-40 40l40 40h110l40 -40zM60 370l-20 20v230l50 50l30 -30v-210zM290 40l-40 -40h-110l-40 40l40 40h110zM120 290v-210l-30 -30l-50 50v230l20 20z" />
    <glyph glyph-name="parenright" unicode=")" 
d="M230 80h110l40 -40l-40 -40h-110l-40 40zM420 350l20 -20v-230l-50 -50l-30 30v210zM190 680l40 40h110l40 -40l-40 -40h-110zM360 430v210l30 30l50 -50v-230l-20 -20z" />
    <glyph glyph-name="asterisk" unicode="*" 
d="M210 430v80l40 40l40 -40v-80l70 40l55 -15l-15 -55l-69 -40l69 -40l15 -55l-55 -15l-70 40v-80l-40 -40l-40 40v80l-70 -40l-55 15l15 55l69 40l-69 40l-15 55l55 15z" />
    <glyph glyph-name="plus" unicode="+" 
d="M210 400v90l40 40l40 -40v-90h90l40 -40l-40 -40h-90v-90l-40 -40l-40 40v90h-90l-40 40l40 40h90z" />
    <glyph glyph-name="comma" unicode="," 
d="M290 -80l-40 -40l-40 40v160h80v-160z" />
    <glyph glyph-name="hyphen" unicode="-" 
d="M380 400l40 -40l-40 -40h-260l-40 40l40 40h260z" />
    <glyph glyph-name="period" unicode="." 
d="M290 0h-80v80h80v-80z" />
    <glyph glyph-name="slash" unicode="/" 
d="M261 478l119 242q60 0 80 -40l-154 -310h-45v108zM239 242l-119 -242q-60 0 -80 40l154 310h45v-108z" />
    <glyph glyph-name="zero" unicode="0" 
d="M440 350l20 -20v-280q-10 -40 -50 -50l-30 80v210zM390 0h-300q-40 10 -50 50l80 30h240zM40 70v260l20 20l60 -60v-190zM360 640h-239l-80 30q10 40 50 50h299zM120 620v-190l-60 -60l-20 20v260zM380 430v210l30 80q40 -10 50 -50v-280l-20 -20z" />
    <glyph glyph-name="one" unicode="1" 
d="M440 350l20 -20v-280q-10 -40 -50 -50l-30 80v210zM380 430v210l30 80q40 -10 50 -50v-280l-20 -20z" />
    <glyph glyph-name="two" unicode="2" 
d="M380 400l40 -40l-40 -40h-260l-40 40l40 40h260zM420 0h-330q-40 10 -50 50l80 30h270zM40 70v260l20 20l60 -60v-190zM360 640h-239l-80 30q10 40 50 50h299zM380 430v210l30 80q40 -10 50 -50v-280l-20 -20z" />
    <glyph glyph-name="three" unicode="3" 
d="M380 400l40 -40l-40 -40h-260l-40 40l40 40h260zM440 350l20 -20v-280q-10 -40 -50 -50l-30 80v210zM390 0h-300q-40 10 -50 50l80 30h240zM360 640h-239l-80 30q10 40 50 50h299zM380 430v210l30 80q40 -10 50 -50v-280l-20 -20z" />
    <glyph glyph-name="four" unicode="4" 
d="M380 400l40 -40l-40 -40h-260l-40 40l40 40h260zM440 350l20 -20v-280q-10 -40 -50 -50l-30 80v210zM120 650v-220l-60 -60l-20 20v290zM380 430v210l30 80q40 -10 50 -50v-280l-20 -20z" />
    <glyph glyph-name="five" unicode="5" 
d="M380 400l40 -40l-40 -40h-260l-40 40l40 40h260zM440 350l20 -20v-280q-10 -40 -50 -50l-30 80v210zM390 0h-300q-40 10 -50 50l80 30h240zM390 640h-269l-80 30q10 40 50 50h329zM120 620v-190l-60 -60l-20 20v260z" />
    <glyph glyph-name="six" unicode="6" 
d="M380 400l40 -40l-40 -40h-260l-40 40l40 40h260zM440 350l20 -20v-280q-10 -40 -50 -50l-30 80v210zM390 0h-300q-40 10 -50 50l80 30h240zM40 70v260l20 20l60 -60v-190zM390 640h-269l-80 30q10 40 50 50h329zM120 620v-190l-60 -60l-20 20v260z" />
    <glyph glyph-name="seven" unicode="7" 
d="M440 350l20 -20v-280q-10 -40 -50 -50l-30 80v210zM360 640h-239l-80 30q10 40 50 50h299zM120 620v-190l-60 -60l-20 20v260zM380 430v210l30 80q40 -10 50 -50v-280l-20 -20z" />
    <glyph glyph-name="eight" unicode="8" 
d="M380 400l40 -40l-40 -40h-260l-40 40l40 40h260zM440 350l20 -20v-280q-10 -40 -50 -50l-30 80v210zM390 0h-300q-40 10 -50 50l80 30h240zM40 70v260l20 20l60 -60v-190zM360 640h-239l-80 30q10 40 50 50h299zM120 620v-190l-60 -60l-20 20v260zM380 430v210l30 80
q40 -10 50 -50v-280l-20 -20z" />
    <glyph glyph-name="nine" unicode="9" 
d="M380 400l40 -40l-40 -40h-260l-40 40l40 40h260zM440 350l20 -20v-280q-10 -40 -50 -50l-30 80v210zM390 0h-300q-40 10 -50 50l80 30h240zM360 640h-239l-80 30q10 40 50 50h299zM120 620v-190l-60 -60l-20 20v260zM380 430v210l30 80q40 -10 50 -50v-280l-20 -20z" />
    <glyph glyph-name="colon" unicode=":" 
d="M290 160h-80v80h80v-80zM290 480h-80v80h80v-80z" />
    <glyph glyph-name="semicolon" unicode=";" 
d="M290 480h-80v80h80v-80zM290 -80l-40 -40l-40 40v160h80v-160z" />
    <glyph glyph-name="less" unicode="&#x3c;" 
d="M210 370h-110l200 200h40l30 -39zM370 189l-30 -39h-40l-200 200h110z" />
    <glyph glyph-name="equal" unicode="=" 
d="M380 480l40 -40l-40 -40h-260l-40 40l40 40h260zM380 319l40 -40l-40 -40h-260l-40 40l40 40h260z" />
    <glyph glyph-name="greater" unicode="&#x3e;" 
d="M100 531l30 39h40l200 -200h-110zM260 350h110l-200 -200h-40l-30 39z" />
    <glyph glyph-name="question" unicode="?" 
d="M380 400l40 -40l-40 -40h-260l-40 40l40 40h260zM40 160v170l20 20l60 -60v-130h-80zM360 640h-239l-80 30q10 40 50 50h299zM380 430v210l30 80q40 -10 50 -50v-280l-20 -20zM120 0h-80v80h80v-80z" />
    <glyph glyph-name="at" unicode="@" 
d="M440 350l20 -20v-120q-10 -40 -50 -50l-30 80v50zM390 0h-300q-40 10 -50 50l80 30h240zM40 70v260l20 20l60 -60v-190zM360 640h-239l-80 30q10 40 50 50h299zM120 620v-190l-60 -60l-20 20v260zM380 430v210l30 80q40 -10 50 -50v-280l-20 -20zM390 160l-140 -1
q-40 10 -50 50l80 31h80zM200 230v100l20 20l60 -60v-30zM280 460v-30l-60 -60l-20 20v100zM360 480h-80l-80 31q10 40 50 50l110 -1v-80z" />
    <glyph glyph-name="A" unicode="A" 
d="M380 400l40 -40l-40 -40h-260l-40 40l40 40h260zM440 350l20 -20v-280q-10 -40 -50 -50l-30 80v210zM360 640h-239l-80 30q10 40 50 50h299zM120 620v-190l-60 -60l-20 20v260zM380 430v210l30 80q40 -10 50 -50v-280l-20 -20zM120 290v-210l-30 -80q-40 10 -50 50v280
l20 20z" />
    <glyph glyph-name="B" unicode="B" 
d="M380 400l40 -40l-40 -40h-260l-40 40l40 40h260zM40 70v260l20 20l60 -60v-190zM360 640h-240l-80 30v50h320l40 -40zM120 620v-190l-60 -60l-20 20v260zM380 430v210l30 30l50 -50v-230l-20 -20zM440 350l20 -20v-230l-50 -50l-30 30v210zM399 40l-40 -40h-319v50l80 30
h239z" />
    <glyph glyph-name="C" unicode="C" 
d="M420 0h-330q-40 10 -50 50l80 30h270zM40 70v260l20 20l60 -60v-190zM390 640h-269l-80 30q10 40 50 50h329zM120 620v-190l-60 -60l-20 20v260z" />
    <glyph glyph-name="D" unicode="D" 
d="M40 70v260l20 20l60 -60v-190zM360 640h-240l-80 30v50h320l40 -40zM120 620v-190l-60 -60l-20 20v260zM380 430v210l30 30l50 -50v-230l-20 -20zM440 350l20 -20v-230l-50 -50l-30 30v210zM399 40l-40 -40h-319v50l80 30h239z" />
    <glyph glyph-name="E" unicode="E" 
d="M380 400l40 -40l-40 -40h-260l-40 40l40 40h260zM420 0h-330q-40 10 -50 50l80 30h270zM40 70v260l20 20l60 -60v-190zM390 640h-269l-80 30q10 40 50 50h329zM120 620v-190l-60 -60l-20 20v260z" />
    <glyph glyph-name="F" unicode="F" 
d="M380 400l40 -40l-40 -40h-260l-40 40l40 40h260zM390 640h-269l-80 30q10 40 50 50h329zM120 620v-190l-60 -60l-20 20v260zM120 290v-210l-30 -80q-40 10 -50 50v280l20 20z" />
    <glyph glyph-name="G" unicode="G" 
d="M380 400l40 -40l-40 -40h-90l-40 40l40 40h90zM440 350l20 -20v-280q-10 -40 -50 -50l-30 80v210zM390 0h-300q-40 10 -50 50l80 30h240zM40 70v260l20 20l60 -60v-190zM390 640h-269l-80 30q10 40 50 50h329zM120 620v-190l-60 -60l-20 20v260z" />
    <glyph glyph-name="H" unicode="H" 
d="M380 400l40 -40l-40 -40h-260l-40 40l40 40h260zM440 350l20 -20v-280q-10 -40 -50 -50l-30 80v210zM380 430v210l30 80q40 -10 50 -50v-280l-20 -20zM120 290v-210l-30 -80q-40 10 -50 50v280l20 20zM60 360l-20 20v280q10 40 50 50l30 -80v-210z" />
    <glyph glyph-name="I" unicode="I" 
d="M200 430v210l30 80q40 -10 50 -50v-280l-20 -20zM260 360l20 -20v-280q-10 -40 -50 -50l-30 80v210z" />
    <glyph glyph-name="J" unicode="J" 
d="M440 350l20 -20v-280q-10 -40 -50 -50l-30 80v210zM390 0h-300q-40 10 -50 50l80 30h240zM40 70v260l20 20l60 -60v-190zM380 430v210l30 80q40 -10 50 -50v-280l-20 -20z" />
    <glyph glyph-name="K" unicode="K" 
d="M380 400l40 -40l-40 -40h-260l-40 40l40 40h260zM440 350l20 -20v-280q-10 -40 -50 -50l-30 80v210zM140 480l240 240q60 0 80 -40l-260 -260h-60v60zM120 290v-210l-30 -80q-40 10 -50 50v280l20 20zM60 370l-20 20v280q10 40 50 50l30 -80v-210z" />
    <glyph glyph-name="L" unicode="L" 
d="M120 290v-210l-30 -80q-40 10 -50 50v280l20 20zM140 80h240l80 -30q-10 -40 -50 -50h-300zM60 370l-20 20v280q10 40 50 50l30 -80v-210z" />
    <glyph glyph-name="M" unicode="M" 
d="M290 390l-40 -40l-40 40v230h80v-230zM440 350l20 -20v-280q-10 -40 -50 -50l-30 80v210zM360 640h-239l-80 30q10 40 50 50h299zM120 620v-190l-60 -60l-20 20v260zM380 430v210l30 80q40 -10 50 -50v-280l-20 -20zM120 290v-210l-30 -80q-40 10 -50 50v280l20 20z" />
    <glyph glyph-name="N" unicode="N" 
d="M120 290v-210l-30 -80q-40 10 -50 50v280l20 20zM360 420h-70l-150 150v60h60l160 -160v-50zM440 350l20 -20v-280q-10 -40 -50 -50l-30 80v210zM380 420v210l30 80q40 -10 50 -50v-280l-20 -20zM60 360l-20 20v280q10 40 50 50l30 -80v-210z" />
    <glyph glyph-name="O" unicode="O" 
d="M360 640h-220l-40 40l40 40h220l40 -40zM380 430v210l30 30l50 -50v-230l-20 -20zM440 350l20 -20v-230l-50 -50l-30 30v210zM60 370l-20 20v230l50 50l30 -30v-210zM400 40l-40 -40h-220l-40 40l40 40h220zM120 290v-210l-30 -30l-50 50v230l20 20z" />
    <glyph glyph-name="P" unicode="P" 
d="M380 400l40 -40l-40 -40h-260l-40 40l40 40h260zM360 640h-240l-80 30v50h320l40 -40zM120 620v-190l-60 -60l-20 20v260zM380 430v210l30 30l50 -50v-230l-20 -20zM120 290v-210l-30 -80q-40 10 -50 50v280l20 20z" />
    <glyph glyph-name="Q" unicode="Q" 
d="M440 350l20 -20v-240l-80 80v120zM370 0h-280q-40 10 -50 50l80 30h170zM40 70v260l20 20l60 -60v-190zM360 640h-239l-80 30q10 40 50 50h299zM120 620v-190l-60 -60l-20 20v260zM380 430v210l30 80q40 -10 50 -50v-280l-20 -20zM280 180h60l130 -130v-60h-60l-130 130
v60z" />
    <glyph glyph-name="R" unicode="R" 
d="M380 400l40 -40l-40 -40h-260l-40 40l40 40h260zM140 300h60l260 -260q-20 -40 -80 -40l-240 240v60zM120 290v-210l-30 -80q-40 10 -50 50v280l20 20zM360 640h-239l-80 30q10 40 50 50h299zM380 430v210l30 80q40 -10 50 -50v-280l-20 -20zM120 620v-190l-60 -60
l-20 20v260z" />
    <glyph glyph-name="S" unicode="S" 
d="M380 400l40 -40l-40 -40h-260l-40 40l40 40h260zM440 350l20 -20v-280q-10 -40 -50 -50l-30 80v210zM390 0h-300q-40 10 -50 50l80 30h240zM120 620v-190l-60 -60l-20 20v260zM121 640l-80 30q10 40 50 50h319q40 -10 50 -50l-80 -30h-259z" />
    <glyph glyph-name="T" unicode="T" 
d="M250 350l40 -40v-260q-10 -40 -50 -50l-30 80v230zM210 410v210h80v-210l-40 -40zM121 640l-80 30q10 40 50 50h319q40 -10 50 -50l-80 -30h-259z" />
    <glyph glyph-name="U" unicode="U" 
d="M440 350l20 -20v-280q-10 -40 -50 -50l-30 80v210zM390 0h-300q-40 10 -50 50l80 30h240zM40 70v260l20 20l60 -60v-190zM380 430v210l30 80q40 -10 50 -50v-280l-20 -20zM60 360l-20 20v280q10 40 50 50l30 -80v-210z" />
    <glyph glyph-name="V" unicode="V" 
d="M60 360l-20 20v280q10 40 50 50l30 -80v-210zM380 420v210l30 80q40 -10 50 -50v-280l-20 -20zM240 120v-120l-200 260v60l20 20l60 -60zM380 280l60 60l20 -20v-60l-200 -260v120z" />
    <glyph glyph-name="W" unicode="W" 
d="M290 100h-80v230l40 40l40 -40v-230zM380 430v210l30 80q40 -10 50 -50v-280l-20 -20zM390 0h-299q-40 10 -50 50l80 30h239zM40 70v260l20 20l60 -60v-190zM440 350l20 -20v-280q-10 -40 -50 -50l-30 80v210zM60 370l-20 20v280q10 40 50 50l30 -80v-210z" />
    <glyph glyph-name="X" unicode="X" 
d="M260 350h45l154 -310q-20 -40 -80 -40l-119 242v108zM261 478l119 242q60 0 80 -40l-154 -310h-45v108zM239 242l-119 -242q-60 0 -80 40l154 310h45v-108zM240 370h-45l-154 310q20 40 80 40l119 -243v-107z" />
    <glyph glyph-name="Y" unicode="Y" 
d="M380 400l40 -40l-40 -40h-260l-40 40l40 40h260zM440 350l20 -20v-280q-10 -40 -50 -50l-30 80v210zM390 0h-300q-40 10 -50 50l80 30h240zM120 650v-220l-60 -60l-20 20v290zM380 430v210l30 80q40 -10 50 -50v-280l-20 -20z" />
    <glyph glyph-name="Z" unicode="Z" 
d="M420 0h-280l40 80h210zM320 640h-199l-80 30q10 40 50 50h269zM250 430l130 290q60 0 80 -40l-150 -310h-60v60zM260 290l-140 -290q-60 0 -80 40l160 310h60v-60z" />
    <glyph glyph-name="bracketleft" unicode="[" 
d="M40 70v260l20 20l60 -60v-190zM190 640h-69l-80 30q10 40 50 50h139l20 -20zM120 620v-190l-60 -60l-20 20v260zM250 20l-20 -20h-139q-40 10 -50 50l80 30h69z" />
    <glyph glyph-name="backslash" unicode="\" 
d="M260 350h45l154 -310q-20 -40 -80 -40l-119 242v108zM240 370h-45l-154 310q20 40 80 40l119 -243v-107z" />
    <glyph glyph-name="bracketright" unicode="]" 
d="M440 350l20 -20v-280q-10 -40 -50 -50l-30 80v210zM360 640h-50l-60 60l20 20h120zM380 430v210l30 80q40 -10 50 -50v-280l-20 -20zM390 0h-120l-20 20l60 60h50z" />
    <glyph glyph-name="asciicircum" unicode="^" 
d="M259 610v110l200 -200v-40l-39 -30zM79 450l-39 30v40l200 200l-1 -110z" />
    <glyph glyph-name="underscore" unicode="_" 
d="M379 80l80 -30q-10 -40 -50 -50h-319q-40 10 -50 50l80 30h259z" />
    <glyph glyph-name="grave" unicode="`" 
d="M340 610v-40l-40 -10l-140 140l10 40h40z" />
    <glyph glyph-name="a" unicode="a" 
d="M380 400l40 -40l-40 -40h-260l-40 40l40 40h260zM440 350l20 -20v-280q-10 -40 -50 -50l-30 80v210zM360 640h-239l-80 30q10 40 50 50h299zM120 620v-190l-60 -60l-20 20v260zM380 430v210l30 80q40 -10 50 -50v-280l-20 -20zM120 290v-210l-30 -80q-40 10 -50 50v280
l20 20z" />
    <glyph glyph-name="b" unicode="b" 
d="M380 400l40 -40l-40 -40h-260l-40 40l40 40h260zM40 70v260l20 20l60 -60v-190zM360 640h-240l-80 30v50h320l40 -40zM120 620v-190l-60 -60l-20 20v260zM380 430v210l30 30l50 -50v-230l-20 -20zM440 350l20 -20v-230l-50 -50l-30 30v210zM399 40l-40 -40h-319v50l80 30
h239z" />
    <glyph glyph-name="c" unicode="c" 
d="M420 0h-330q-40 10 -50 50l80 30h270zM40 70v260l20 20l60 -60v-190zM390 640h-269l-80 30q10 40 50 50h329zM120 620v-190l-60 -60l-20 20v260z" />
    <glyph glyph-name="d" unicode="d" 
d="M40 70v260l20 20l60 -60v-190zM360 640h-240l-80 30v50h320l40 -40zM120 620v-190l-60 -60l-20 20v260zM380 430v210l30 30l50 -50v-230l-20 -20zM440 350l20 -20v-230l-50 -50l-30 30v210zM399 40l-40 -40h-319v50l80 30h239z" />
    <glyph glyph-name="e" unicode="e" 
d="M380 400l40 -40l-40 -40h-260l-40 40l40 40h260zM420 0h-330q-40 10 -50 50l80 30h270zM40 70v260l20 20l60 -60v-190zM390 640h-269l-80 30q10 40 50 50h329zM120 620v-190l-60 -60l-20 20v260z" />
    <glyph glyph-name="f" unicode="f" 
d="M380 400l40 -40l-40 -40h-260l-40 40l40 40h260zM390 640h-269l-80 30q10 40 50 50h329zM120 620v-190l-60 -60l-20 20v260zM120 290v-210l-30 -80q-40 10 -50 50v280l20 20z" />
    <glyph glyph-name="g" unicode="g" 
d="M380 400l40 -40l-40 -40h-90l-40 40l40 40h90zM440 350l20 -20v-280q-10 -40 -50 -50l-30 80v210zM390 0h-300q-40 10 -50 50l80 30h240zM40 70v260l20 20l60 -60v-190zM390 640h-269l-80 30q10 40 50 50h329zM120 620v-190l-60 -60l-20 20v260z" />
    <glyph glyph-name="h" unicode="h" 
d="M380 400l40 -40l-40 -40h-260l-40 40l40 40h260zM440 350l20 -20v-280q-10 -40 -50 -50l-30 80v210zM380 430v210l30 80q40 -10 50 -50v-280l-20 -20zM120 290v-210l-30 -80q-40 10 -50 50v280l20 20zM60 360l-20 20v280q10 40 50 50l30 -80v-210z" />
    <glyph glyph-name="i" unicode="i" 
d="M200 430v210l30 80q40 -10 50 -50v-280l-20 -20zM260 360l20 -20v-280q-10 -40 -50 -50l-30 80v210z" />
    <glyph glyph-name="j" unicode="j" 
d="M440 350l20 -20v-280q-10 -40 -50 -50l-30 80v210zM390 0h-300q-40 10 -50 50l80 30h240zM40 70v260l20 20l60 -60v-190zM380 430v210l30 80q40 -10 50 -50v-280l-20 -20z" />
    <glyph glyph-name="k" unicode="k" 
d="M380 400l40 -40l-40 -40h-260l-40 40l40 40h260zM440 350l20 -20v-280q-10 -40 -50 -50l-30 80v210zM140 480l240 240q60 0 80 -40l-260 -260h-60v60zM120 290v-210l-30 -80q-40 10 -50 50v280l20 20zM60 370l-20 20v280q10 40 50 50l30 -80v-210z" />
    <glyph glyph-name="l" unicode="l" 
d="M120 290v-210l-30 -80q-40 10 -50 50v280l20 20zM140 80h240l80 -30q-10 -40 -50 -50h-300zM60 370l-20 20v280q10 40 50 50l30 -80v-210z" />
    <glyph glyph-name="m" unicode="m" 
d="M290 390l-40 -40l-40 40v230h80v-230zM440 350l20 -20v-280q-10 -40 -50 -50l-30 80v210zM360 640h-239l-80 30q10 40 50 50h299zM120 620v-190l-60 -60l-20 20v260zM380 430v210l30 80q40 -10 50 -50v-280l-20 -20zM120 290v-210l-30 -80q-40 10 -50 50v280l20 20z" />
    <glyph glyph-name="n" unicode="n" 
d="M120 290v-210l-30 -80q-40 10 -50 50v280l20 20zM360 420h-70l-150 150v60h60l160 -160v-50zM440 350l20 -20v-280q-10 -40 -50 -50l-30 80v210zM380 420v210l30 80q40 -10 50 -50v-280l-20 -20zM60 360l-20 20v280q10 40 50 50l30 -80v-210z" />
    <glyph glyph-name="o" unicode="o" 
d="M360 640h-220l-40 40l40 40h220l40 -40zM380 430v210l30 30l50 -50v-230l-20 -20zM440 350l20 -20v-230l-50 -50l-30 30v210zM60 370l-20 20v230l50 50l30 -30v-210zM400 40l-40 -40h-220l-40 40l40 40h220zM120 290v-210l-30 -30l-50 50v230l20 20z" />
    <glyph glyph-name="p" unicode="p" 
d="M380 400l40 -40l-40 -40h-260l-40 40l40 40h260zM360 640h-240l-80 30v50h320l40 -40zM120 620v-190l-60 -60l-20 20v260zM380 430v210l30 30l50 -50v-230l-20 -20zM120 290v-210l-30 -80q-40 10 -50 50v280l20 20z" />
    <glyph glyph-name="q" unicode="q" 
d="M440 350l20 -20v-240l-80 80v120zM370 0h-280q-40 10 -50 50l80 30h170zM40 70v260l20 20l60 -60v-190zM360 640h-239l-80 30q10 40 50 50h299zM120 620v-190l-60 -60l-20 20v260zM380 430v210l30 80q40 -10 50 -50v-280l-20 -20zM280 180h60l130 -130v-60h-60l-130 130
v60z" />
    <glyph glyph-name="r" unicode="r" 
d="M380 400l40 -40l-40 -40h-260l-40 40l40 40h260zM140 300h60l260 -260q-20 -40 -80 -40l-240 240v60zM120 290v-210l-30 -80q-40 10 -50 50v280l20 20zM360 640h-239l-80 30q10 40 50 50h299zM380 430v210l30 80q40 -10 50 -50v-280l-20 -20zM120 620v-190l-60 -60
l-20 20v260z" />
    <glyph glyph-name="s" unicode="s" 
d="M380 400l40 -40l-40 -40h-260l-40 40l40 40h260zM440 350l20 -20v-280q-10 -40 -50 -50l-30 80v210zM390 0h-300q-40 10 -50 50l80 30h240zM120 620v-190l-60 -60l-20 20v260zM121 640l-80 30q10 40 50 50h319q40 -10 50 -50l-80 -30h-259z" />
    <glyph glyph-name="t" unicode="t" 
d="M250 350l40 -40v-260q-10 -40 -50 -50l-30 80v230zM210 410v210h80v-210l-40 -40zM121 640l-80 30q10 40 50 50h319q40 -10 50 -50l-80 -30h-259z" />
    <glyph glyph-name="u" unicode="u" 
d="M440 350l20 -20v-280q-10 -40 -50 -50l-30 80v210zM390 0h-300q-40 10 -50 50l80 30h240zM40 70v260l20 20l60 -60v-190zM380 430v210l30 80q40 -10 50 -50v-280l-20 -20zM60 360l-20 20v280q10 40 50 50l30 -80v-210z" />
    <glyph glyph-name="v" unicode="v" 
d="M60 360l-20 20v280q10 40 50 50l30 -80v-210zM380 420v210l30 80q40 -10 50 -50v-280l-20 -20zM240 120v-120l-200 260v60l20 20l60 -60zM380 280l60 60l20 -20v-60l-200 -260v120z" />
    <glyph glyph-name="w" unicode="w" 
d="M290 100h-80v230l40 40l40 -40v-230zM380 430v210l30 80q40 -10 50 -50v-280l-20 -20zM390 0h-299q-40 10 -50 50l80 30h239zM40 70v260l20 20l60 -60v-190zM440 350l20 -20v-280q-10 -40 -50 -50l-30 80v210zM60 370l-20 20v280q10 40 50 50l30 -80v-210z" />
    <glyph glyph-name="x" unicode="x" 
d="M260 350h45l154 -310q-20 -40 -80 -40l-119 242v108zM261 478l119 242q60 0 80 -40l-154 -310h-45v108zM239 242l-119 -242q-60 0 -80 40l154 310h45v-108zM240 370h-45l-154 310q20 40 80 40l119 -243v-107z" />
    <glyph glyph-name="y" unicode="y" 
d="M380 400l40 -40l-40 -40h-260l-40 40l40 40h260zM440 350l20 -20v-280q-10 -40 -50 -50l-30 80v210zM390 0h-300q-40 10 -50 50l80 30h240zM120 650v-220l-60 -60l-20 20v290zM380 430v210l30 80q40 -10 50 -50v-280l-20 -20z" />
    <glyph glyph-name="z" unicode="z" 
d="M420 0h-280l40 80h210zM320 640h-199l-80 30q10 40 50 50h269zM250 430l130 290q60 0 80 -40l-150 -310h-60v60zM260 290l-140 -290q-60 0 -80 40l160 310h60v-60z" />
    <glyph glyph-name="braceleft" unicode="{" 
d="M150 70v220l60 60l20 -20v-230zM300 640h-69l-80 30q10 40 50 50h139l20 -20zM230 620v-230l-20 -20l-60 60v220zM360 20l-20 -20h-139q-40 10 -50 50l80 30h69zM140 400l40 -40l-40 -40h-70l-40 40l40 40h70z" />
    <glyph glyph-name="bar" unicode="|" 
d="M120 50q-10 -40 -50 -50l-30 80v560l30 80q40 -10 50 -50v-620z" />
    <glyph glyph-name="braceright" unicode="}" 
d="M210 100v230l20 20l60 -60v-220zM80 700l20 20h139q40 -10 50 -50l-80 -30h-69zM290 650v-220l-60 -60l-20 20v230zM140 80h69l80 -30q-10 -40 -50 -50h-139l-20 20zM370 400l40 -40l-40 -40h-70l-40 40l40 40h70z" />
    <glyph glyph-name="asciitilde" unicode="~" 
d="M270 480l40 -40l-40 -40h-40l-40 40l40 40h40zM110 479l40 -40l-40 -40h-40l-40 40l40 40h40zM430 480l40 -40l-40 -40h-40l-40 40l40 40h40zM190 540l40 -40l-40 -40h-40l-40 40l40 40h40zM350 410l40 -40l-40 -40h-40l-40 40l40 40h40z" />
    <glyph glyph-name="perthousand" unicode="&#x2030;" 
d="M229 399l-160 -159q-60 -1 -59 59l189 190h30v-90zM90 640h-10l-80 30q10 40 50 50h70zM80 620v-60l-30 -80q-40 10 -50 50v120zM100 560h10l80 -30q-10 -40 -50 -50h-70zM110 580v60l30 80q40 -10 50 -50v-120zM390 160h-10l-80 30q10 40 50 50h70zM381 140v-60l-30 -80
q-40 10 -50 50v120zM400 80h10l80 -30q-10 -40 -50 -50h-70zM410 100v60l30 80q40 -10 50 -50v-120zM180 100v60l30 80q40 -10 50 -50v-120zM170 79h10l80 -30q-10 -40 -50 -50h-70zM150 140v-60l-30 -80q-40 10 -50 50v120zM160 160h-10l-80 30q10 40 50 50h70zM240 531
l160 159q60 1 59 -59l-189 -191l-30 1v90z" />
    <glyph glyph-name="quoteleft" unicode="&#x2018;" 
d="M300 520h-80v160l40 40l40 -40v-160z" />
    <glyph glyph-name="quoteright" unicode="&#x2019;" 
d="M300 560l-40 -40l-40 40v160h80v-160z" />
    <glyph glyph-name="quotedblleft" unicode="&#x201c;" 
d="M220 521h-80v160l40 40l40 -40v-160zM380 520h-80v160l40 40l40 -40v-160z" />
    <glyph glyph-name="quotedblright" unicode="&#x201d;" 
d="M220 560l-40 -40l-40 40v160h80v-160zM381 561l-40 -40l-40 40v160h80v-160z" />
    <glyph glyph-name="bullet" unicode="&#x2022;" 
d="M245 220q-60 0 -102.5 42.5t-42.5 102.5t42.5 102.5t102.5 42.5t102.5 -42.5t42.5 -102.5t-42.5 -102.5t-102.5 -42.5z" />
    <glyph glyph-name="endash" unicode="&#x2013;" 
d="M430 400l40 -40l-40 -40h-360l-40 40l40 40h360z" />
    <glyph glyph-name="emdash" unicode="&#x2014;" 
d="M450 400l40 -40l-40 -40h-400l-40 40l40 40h400z" />
    <glyph glyph-name="copyright" unicode="&#xa9;" 
d="M410 0h-360q-40 10 -50 50l80 30h300zM380 640h-299l-80 30q10 40 50 50h359zM80 100l-80 -30v580l80 -30v-520zM480 50q-10 -40 -50 -50l-30 80v560l30 80q40 -10 50 -50v-620zM330 480h-130l-80 30q10 40 50 50h190zM200 460v-220l-30 -80q-40 10 -50 50v280zM220 240
h60l80 -30q-10 -40 -50 -50h-120z" />
  </font>
</defs>
</svg>
